<?xml version="1.0" standalone="no"?>
<!DOCTYPE svg PUBLIC "-//W3C//DTD SVG 1.1//EN" "http://www.w3.org/Graphics/SVG/1.1/DTD/svg11.dtd" >
<svg xmlns="http://www.w3.org/2000/svg">
<metadata></metadata>
<defs>
<font id="heliosregular" horiz-adv-x="1151" >
<font-face units-per-em="2048" ascent="1638" descent="-410" />
<missing-glyph horiz-adv-x="573" />
<glyph horiz-adv-x="0" />
<glyph unicode=" "  horiz-adv-x="573" />
<glyph unicode="&#x09;" horiz-adv-x="573" />
<glyph unicode="&#xa0;" horiz-adv-x="573" />
<glyph unicode="!" horiz-adv-x="573" d="M385 211h-199v-211h199v211zM336 354l49 641v492h-199v-492l50 -641h100z" />
<glyph unicode="&#x22;" horiz-adv-x="735" d="M145 958h152v527h-152v-527zM438 958h152v527h-152v-527z" />
<glyph unicode="#" d="M803 434h213l18 129h-213l41 295h213l21 129h-215l61 434h-139l-60 -434h-256l60 434h-139l-60 -434h-213l-18 -129h213l-39 -295h-213l-19 -129h213l-61 -434h137l60 434h258l-60 -434h137zM725 858l-39 -295h-260l41 295h258z" />
<glyph unicode="$" d="M524 846q-96 14 -168 69q-75 56 -77 164q0 99 63 170q61 68 182 70v-473zM620 637v0l113 -35q68 -22 115 -82q45 -59 47 -149q0 -103 -68 -179q-67 -79 -207 -81v526zM1040 1077q-4 125 -49 205q-47 76 -115 115q-65 43 -135 57q-69 14 -121 16v131h-96v-131 q-188 -2 -305 -116q-121 -115 -123 -287q0 -107 39 -176q37 -70 98 -115q64 -45 138 -72q75 -26 153 -45v-548v0q-149 22 -209 96q-61 72 -67 233h-180q2 -262 133 -366q30 -27 67 -45q37 -21 78 -35q43 -12 88 -21q43 -8 90 -12v-199h96v199q68 0 146 23q78 20 147 69 q72 49 117 135t45 217q-2 195 -117 281q-118 86 -338 139v494v0q74 -12 119 -35q45 -25 72 -55q27 -31 39 -70t14 -82h176z" />
<glyph unicode="%" horiz-adv-x="1837" d="M80 1087q2 -151 106 -249q101 -103 248 -105q152 2 250 107q98 100 100 247q-2 152 -102 250q-98 99 -248 101q-147 -2 -248 -101q-104 -98 -106 -250v0zM225 1087q0 86 62 146q57 57 147 59q88 -2 148 -59q57 -58 59 -146q-2 -88 -59 -145q-58 -63 -150 -63 q-86 0 -143 57q-64 55 -64 151v0zM1053 338q2 -152 106 -250q100 -102 248 -104q151 2 250 106q98 100 100 248q-2 151 -102 250q-99 98 -248 100q-148 -2 -248 -100q-104 -99 -106 -250v0zM1198 338q0 86 61 145q58 58 148 60q88 -2 147 -60q58 -57 60 -145 q-2 -88 -60 -146q-57 -63 -149 -63q-86 0 -144 57q-63 56 -63 152v0zM1382 1454h-112l-817 -1495h110z" />
<glyph unicode="&#x26;" horiz-adv-x="1378" d="M526 702l336 -409q-121 -166 -323 -166q-70 -2 -162 55q-43 27 -72 76q-33 47 -33 115q0 116 68 188q65 70 186 141v0zM590 909q-45 45 -92 115q-21 35 -37 72q-17 36 -17 71q-2 43 31 101q33 59 143 61q50 2 103 -31q53 -34 55 -133q-2 -92 -61 -153q-60 -64 -125 -103 v0zM1069 322q59 108 86 204q27 97 33 174h-172q-19 -131 -60 -231v0l-270 321q43 31 90 66t86 80q41 45 66 106q24 62 24 138q0 118 -78 210q-79 95 -254 97q-172 -2 -262 -101q-90 -96 -90 -231q0 -92 39 -162q39 -69 119 -168q-201 -108 -270 -213q-68 -104 -66 -254 q0 -41 16 -104q19 -66 64 -131q47 -64 135 -107q84 -45 221 -47q160 2 262 60q99 53 170 141v0l140 -170h235z" />
<glyph unicode="'" horiz-adv-x="395" d="M123 958h149v527h-149v-527z" />
<glyph unicode="(" horiz-adv-x="688" d="M491 1517q-348 -454 -350 -976q0 -283 101 -508q94 -223 256 -461h120q-124 242 -200 457q-82 213 -82 462q0 359 76 576q71 217 204 450h-125z" />
<glyph unicode=")" horiz-adv-x="688" d="M197 -428q346 455 350 977q-2 287 -96 510q-95 221 -261 458h-120q129 -237 204 -450q76 -215 78 -469q0 -356 -71 -573q-76 -217 -209 -453h125z" />
<glyph unicode="*" horiz-adv-x="805" d="M123 1337l-43 -114l225 -70l-139 -191l100 -69v0l135 194v0l136 -194v0l100 69l-139 191l225 70l-43 114v0l-217 -80v0v228h-123v-228v0l-217 80v0z" />
<glyph unicode="+" horiz-adv-x="1208" d="M530 598h-450v-150h450v-448h150v448h448v150h-448v448h-150v-448z" />
<glyph unicode="," horiz-adv-x="573" d="M178 0h111q0 -74 -21 -135q-22 -64 -90 -74v-94q21 2 55 16q35 11 72 43q39 33 64 97q26 61 26 163v203h-217v-219z" />
<glyph unicode="-" horiz-adv-x="690" d="M598 598h-506v-150h506v150z" />
<glyph unicode="." horiz-adv-x="573" d="M395 219h-217v-219h217v219z" />
<glyph unicode="/" horiz-adv-x="573" d="M610 1526h-137l-510 -1565h139z" />
<glyph unicode="0" d="M879 709q0 -275 -72 -428q-76 -156 -232 -156q-155 0 -229 156q-74 153 -74 428q0 276 74 430q74 151 229 153q156 -2 232 -153q72 -154 72 -430v0zM1073 709q0 116 -16 245q-21 129 -74 242q-53 117 -152 188q-100 70 -256 72q-155 -2 -251 -72q-97 -71 -152 -188 q-53 -113 -74 -242q-20 -129 -20 -245q0 -113 20 -242q21 -127 74 -244q55 -112 152 -186q96 -74 251 -76q156 2 256 76q99 74 152 186q53 117 74 244q16 129 16 242v0z" />
<glyph unicode="1" d="M741 1456h-141q-41 -172 -127 -221q-88 -51 -264 -57v-146h338v-1032h194v1456z" />
<glyph unicode="2" d="M274 934q2 41 13 100q8 60 35 119q26 59 88 100q57 39 157 39q80 0 135 -22q56 -25 88 -66q35 -37 50 -84q14 -45 14 -92q0 -137 -82 -215q-84 -78 -227 -147q-283 -146 -383 -293q-99 -148 -107 -373h994v172h-789q4 47 70 129q61 84 207 166q266 137 391 252 q121 114 121 301q-3 207 -132 321q-127 113 -323 115q-60 0 -141 -14q-86 -17 -168 -68t-136 -158q-57 -106 -57 -282h182z" />
<glyph unicode="3" d="M463 674q196 2 309 -47q113 -54 115 -219q-2 -127 -88 -203q-86 -80 -230 -80q-100 0 -159 33q-62 30 -95 78q-28 51 -41 106q-14 53 -16 104h-186q0 -219 127 -348q125 -135 358 -137q279 4 401 148q121 137 121 321q-2 145 -65 227q-66 78 -176 111v4q65 18 124 90 q60 74 62 211q-2 170 -117 277q-119 104 -332 106q-139 -2 -231 -43q-94 -43 -145 -115q-52 -69 -72 -153q-21 -84 -21 -166h179q4 55 18 110q12 54 41 101q31 47 86 76q51 26 137 26q84 0 135 -22q52 -23 82 -60q31 -35 41 -73q11 -39 11 -74q0 -84 -31 -133 q-33 -47 -86 -72q-53 -20 -119 -27q-66 -6 -137 -6v-151z" />
<glyph unicode="4" d="M1081 354v158h-213v944h-149l-666 -924v-178h635v-354h180v354h213zM684 1171h4v-659h-469z" />
<glyph unicode="5" d="M305 846l62 399h616v178h-754l-108 -780l158 -8q104 135 268 137q139 0 229 -80q90 -84 92 -241q-2 -140 -80 -232q-81 -98 -225 -100q-125 0 -207 59q-82 58 -100 182h-188q16 -118 63 -196t115 -123q67 -43 145 -61q74 -19 146 -19q170 2 276 59q106 56 160 138 q53 82 73 168q17 86 17 145q-4 225 -150 346q-141 119 -327 119q-97 0 -164 -27q-70 -24 -117 -63v0z" />
<glyph unicode="6" d="M1040 1069q-6 111 -47 186q-43 76 -106 119q-64 45 -133 66q-72 16 -138 16q-161 -2 -264 -76q-106 -73 -166 -192q-57 -119 -82 -252q-24 -135 -24 -258q-2 -305 117 -506q114 -207 368 -211q256 4 381 154q125 145 125 352q-2 133 -43 221q-45 90 -115 141 q-69 56 -147 78q-80 21 -150 21q-145 -2 -227 -58q-84 -55 -117 -120l-4 4q0 61 17 151q14 88 51 176t104 150q68 59 172 61q119 -2 178 -61q58 -64 72 -162h178zM293 448q0 134 74 224q73 90 223 92q86 0 143 -27q55 -28 88 -76q35 -47 49 -100q13 -53 13 -102 q0 -150 -76 -240q-76 -94 -209 -94q-158 2 -231 104q-74 99 -74 219v0z" />
<glyph unicode="7" d="M78 1245h798q-215 -252 -380 -594q-166 -342 -211 -651h200q95 494 285 819q90 164 174 277q82 112 137 168v159h-1003v-178z" />
<glyph unicode="8" d="M1018 1081q0 137 -103 252q-104 119 -346 123q-127 0 -213 -39q-86 -41 -135 -102q-49 -64 -69 -129q-23 -70 -23 -129q2 -209 197 -285q-242 -90 -246 -352q2 -236 151 -346q146 -113 346 -113q256 4 375 143q117 136 117 318q2 86 -45 188q-49 99 -193 164q25 12 60 33 q31 22 59 55q31 37 49 90q19 53 19 129v0zM573 684q129 0 215 -66q84 -69 86 -217q0 -86 -24 -137q-25 -55 -70 -86q-41 -29 -92 -41t-104 -12q-93 0 -154 31q-61 28 -94 73t-47 95q-15 49 -15 92q0 106 74 186t225 82v0zM571 842q-102 0 -176 61q-76 57 -78 162 q-2 76 50 149q26 35 75 58q47 20 117 20q80 0 133 -18q51 -21 82 -56q31 -30 45 -69q10 -39 10 -74q-2 -100 -67 -164q-70 -69 -191 -69v0z" />
<glyph unicode="9" d="M545 487q104 0 196 47q92 43 135 127l5 -4q-60 -551 -349 -544q-227 4 -245 237h-183q0 -53 21 -117q20 -65 67 -129q50 -59 136 -100q84 -41 209 -43q186 4 294 109q109 102 158 245q51 144 64 275q10 131 10 190q0 92 -12 209q-17 113 -68 219q-51 109 -152 178 q-102 68 -276 70q-231 -4 -348 -149q-119 -144 -119 -351q2 -217 129 -342q125 -127 328 -127v0zM571 651q-47 0 -96 13q-53 12 -96 40q-43 33 -72 97q-31 61 -31 164q0 149 78 237q76 88 203 90q156 -2 225 -92q68 -90 68 -219q0 -107 -29 -170q-28 -68 -74 -100 q-45 -33 -92 -45q-47 -15 -84 -15v0z" />
<glyph unicode=":" horiz-adv-x="573" d="M395 219h-217v-219h217v219zM395 1069h-217v-219h217v219z" />
<glyph unicode=";" horiz-adv-x="573" d="M178 0h111q0 -74 -21 -135q-22 -64 -90 -74v-94q21 2 55 16q35 11 72 43q39 33 64 97q26 61 26 163v203h-217v-219zM395 1067h-217v-219h217v219z" />
<glyph unicode="&#x3c;" horiz-adv-x="1208" d="M1108 25v163l-805 336l805 336v164v0l-1008 -428v-143l1008 -428v0z" />
<glyph unicode="=" horiz-adv-x="1208" d="M1128 807h-1048v-150h1048v150zM1128 389h-1048v-149h1048v149z" />
<glyph unicode="&#x3e;" horiz-adv-x="1208" d="M100 1024v-164l805 -336l-805 -336v-163v0l1008 428v143l-1008 428v0z" />
<glyph unicode="?" d="M299 1020q0 37 8 90q6 55 33 108q27 54 82 93q55 34 151 36q76 0 125 -22q49 -25 76 -61q27 -37 39 -76q10 -41 10 -76q0 -51 -14 -92q-16 -43 -41 -76t-57 -63q-33 -33 -70 -68q-35 -33 -66 -72q-30 -39 -59 -90q-57 -100 -59 -272h186q0 61 6 108q2 45 21 76 q59 103 123 162q59 59 110 106q53 48 84 109q31 59 31 160q-4 200 -131 303q-129 102 -310 102q-167 -2 -262 -59q-96 -60 -137 -146t-51 -161q-10 -80 -10 -119h182zM657 211h-200v-211h200v211z" />
<glyph unicode="@" horiz-adv-x="2099" d="M1264 844q-3 -133 -86 -267q-41 -63 -97 -104q-57 -43 -125 -43q-77 0 -125 59q-49 54 -49 142q0 139 88 268q41 59 99 98q57 35 125 37q73 -2 120 -55q47 -55 50 -135v0zM1327 1022v0q-84 164 -238 162q-217 -4 -344 -179q-131 -172 -133 -393q2 -135 86 -229 q82 -98 217 -100q74 0 140 41q65 38 110 86l4 2q4 -66 43 -97q35 -32 88 -32q154 2 318 159q170 156 178 439q-4 288 -211 464q-205 177 -502 181q-327 -4 -549 -226q-227 -219 -231 -553q4 -335 231 -557q220 -225 560 -229q421 8 645 365h-138q-92 -109 -223 -172 q-133 -64 -280 -64q-277 2 -455 186q-186 179 -188 459q2 285 178 469q170 189 450 193q244 -2 408 -142q166 -139 170 -391q-2 -172 -92 -305q-43 -65 -95 -102q-53 -41 -106 -41q-47 0 -45 61q0 25 20 90q9 33 21 76q12 41 24 86q60 197 121 422h-139z" />
<glyph unicode="A" horiz-adv-x="1380" d="M985 434l147 -434h220l-537 1487h-227l-559 -1487h207l155 434h594zM453 610l237 656h4l219 -656h-460z" />
<glyph unicode="B" horiz-adv-x="1388" d="M352 1315h365q168 0 239 -56q68 -55 68 -161q0 -133 -82 -187q-82 -55 -227 -53h-363v457zM152 0h638q250 2 379 131q127 125 127 309q0 97 -26 160q-29 64 -72 102q-41 39 -86 64q-47 24 -86 35q121 61 162 149q22 43 30 84q7 41 7 78q0 158 -105 264q-104 109 -315 111 h-653v-1487zM352 694h395q64 0 125 -8q64 -8 113 -37q51 -26 82 -76q29 -49 29 -129q0 -266 -316 -272h-428v522z" />
<glyph unicode="C" horiz-adv-x="1495" d="M1395 1038q-21 195 -170 338q-152 146 -441 150q-325 -2 -505 -213q-187 -211 -187 -561q4 -422 209 -609q197 -184 459 -182q47 0 139 14q92 15 199 70q106 55 192 176q86 119 119 326h-195q-26 -127 -73 -207q-49 -82 -113 -125q-61 -41 -125 -59q-61 -17 -113 -17 q-272 2 -382 180q-58 84 -82 197q-27 113 -27 242q2 295 143 442q138 147 342 147q58 0 119 -10q64 -12 123 -45q61 -33 109 -94q47 -61 65 -160h195z" />
<glyph unicode="D" horiz-adv-x="1470" d="M152 0h593q183 0 308 76q122 69 194 182q74 117 103 250q28 131 28 256q-2 328 -166 522q-163 199 -458 201h-602v-1487zM352 1315h375q434 0 444 -563q-10 -576 -430 -580h-389v1143z" />
<glyph unicode="E" horiz-adv-x="1354" d="M1249 178h-897v516h813v178h-813v437h883v178h-1083v-1487h1097v178z" />
<glyph unicode="F" horiz-adv-x="1237" d="M152 1487v-1487h200v694h727v178h-727v437h826v178h-1026z" />
<glyph unicode="G" horiz-adv-x="1599" d="M797 623h462q0 -117 -30 -215q-35 -101 -131 -179q-84 -63 -166 -80q-82 -18 -139 -16q-289 4 -394 195q-53 88 -77 196q-23 109 -23 221q2 293 143 449q138 151 342 153q64 0 131 -10q70 -14 131 -47q64 -33 113 -94q47 -64 70 -162h194q-41 252 -225 373 q-184 119 -403 119q-361 -6 -531 -248q-174 -236 -172 -522q0 -136 37 -273q33 -139 113 -258q80 -114 213 -188t325 -76q322 6 490 231v0l49 -192h129v795h-651v-172z" />
<glyph unicode="H" horiz-adv-x="1481" d="M352 1487h-200v-1487h200v694h776v-694h201v1487h-201v-615h-776v615z" />
<glyph unicode="I" horiz-adv-x="504" d="M352 1487h-200v-1487h200v1487z" />
<glyph unicode="J" horiz-adv-x="1036" d="M684 1487v-1100q0 -111 -47 -180q-27 -35 -72 -53q-49 -21 -119 -21q-104 -2 -161 55q-62 54 -62 185v104h-188v-147q0 -54 20 -115q19 -63 64 -121q47 -55 129 -94q82 -37 209 -39q77 0 153 23q76 20 137 69q64 49 101 135q37 82 37 211v1088h-201z" />
<glyph unicode="K" horiz-adv-x="1382" d="M352 766v721h-200v-1487h200v522l234 223v0l520 -745h260l-635 887l619 600h-277l-721 -721v0z" />
<glyph unicode="L" horiz-adv-x="1143" d="M352 1487h-200v-1487h952v178h-752v1309z" />
<glyph unicode="M" horiz-adv-x="1724" d="M152 1487v-1487h194v879q-4 116 -6 370h6l418 -1249h198l420 1249h2q-4 -256 -6 -370v-879h195v1487h-285l-424 -1258h-4l-422 1258h-286z" />
<glyph unicode="N" horiz-adv-x="1483" d="M1137 287h-5l-743 1200h-237v-1487h194v1200h4l756 -1200h225v1487h-194v-1200z" />
<glyph unicode="O" horiz-adv-x="1630" d="M1331 743q-2 -266 -135 -432q-137 -170 -381 -172q-244 2 -379 174q-137 168 -137 434q0 269 137 433q135 165 379 167q244 -2 381 -169q133 -164 135 -435v0zM1538 743q0 125 -33 260q-37 136 -119 254q-82 119 -223 193q-69 37 -155 57q-89 19 -193 19q-102 0 -188 -19 q-86 -20 -156 -57q-141 -74 -223 -193q-82 -118 -119 -254q-37 -135 -37 -260q0 -120 37 -256q37 -135 119 -254q82 -118 223 -192q139 -78 344 -80q209 2 348 80q141 74 223 192q82 119 119 254q33 136 33 256v0z" />
<glyph unicode="P" horiz-adv-x="1354" d="M352 1315h408q129 0 211 -54q82 -55 84 -194q-2 -148 -84 -207q-82 -63 -219 -61h-400v516zM352 627h469q240 4 342 145q101 135 98 297q-2 184 -116 301q-115 115 -324 117h-669v-1487h200v627z" />
<glyph unicode="Q" horiz-adv-x="1632" d="M981 430l-100 -125l155 -121q-94 -47 -219 -47q-242 2 -379 172q-139 166 -139 432q0 269 139 437q135 167 379 169q244 -2 381 -169q133 -164 135 -435q-2 -295 -162 -460v0l-190 147v0zM1427 -117l101 121l-203 156q119 123 168 280q47 158 47 301q0 125 -33 260 q-37 136 -119 254q-41 60 -96 109t-127 86q-69 37 -155 57q-88 19 -193 19q-102 0 -188 -19q-86 -20 -156 -57q-70 -35 -125 -84q-57 -49 -100 -109q-82 -118 -119 -254q-37 -137 -37 -262q0 -123 37 -254q37 -135 119 -254q82 -118 223 -192q139 -78 344 -80q238 2 385 98 v0l227 -176v0z" />
<glyph unicode="R" horiz-adv-x="1464" d="M352 637h486q92 0 145 -23q53 -22 80 -61q26 -37 35 -84q6 -49 6 -96q0 -49 8 -170q6 -123 27 -203h245v35q-45 26 -61 57q-19 31 -19 90v271q0 79 -18 127q-18 49 -47 75q-29 27 -59 45q-31 17 -60 31q37 21 74 51q37 29 67 68q64 78 66 237q-4 232 -152 320 q-145 82 -337 80h-686v-1487h200v637zM352 1315h502q84 2 172 -37q41 -23 68 -74q26 -51 26 -137q0 -80 -24 -129q-29 -51 -72 -80q-43 -27 -96 -37q-54 -12 -111 -12h-465v506z" />
<glyph unicode="S" horiz-adv-x="1374" d="M1241 1051q-2 63 -18 145q-21 78 -78 154q-58 75 -172 127q-117 47 -312 49q-268 -4 -389 -142q-125 -135 -123 -317q0 -174 115 -254q113 -82 311 -121q349 -72 437 -133q51 -33 63 -76t12 -100q0 -78 -38 -127q-41 -49 -101 -76q-59 -26 -127 -35q-67 -12 -125 -12 q-69 0 -141 19q-72 16 -131 55t-96 106q-39 68 -39 168h-189q0 -80 27 -168q25 -90 88 -170q66 -77 184 -129q119 -51 301 -53q101 0 203 23q100 20 186 71q187 99 193 355q4 186 -111 282q-122 96 -456 168q-226 51 -299 98q-39 25 -56 58q-16 33 -16 78q0 86 37 137 q35 51 88 78q53 28 113 36q57 9 104 9q66 0 127 -13q31 -6 61 -18q29 -14 54 -33q53 -33 88 -92q33 -57 37 -147h188z" />
<glyph unicode="T" horiz-adv-x="1264" d="M733 1309h504v178h-1208v-178h503v-1309h201v1309z" />
<glyph unicode="U" horiz-adv-x="1472" d="M1120 1487v-942q-4 -236 -123 -324q-26 -20 -57 -37q-33 -18 -68 -26q-67 -21 -139 -21q-67 0 -133 21q-68 20 -123 65q-55 49 -88 127q-37 80 -37 199v938h-200v-993q-3 -213 137 -369q137 -160 434 -164q307 4 452 168q146 160 146 393v965h-201z" />
<glyph unicode="V" horiz-adv-x="1378" d="M692 219h-4l-424 1268h-223l541 -1487h215l540 1487h-225z" />
<glyph unicode="W" horiz-adv-x="1954" d="M975 1231h4l340 -1231h211l391 1487h-223l-277 -1208h-4l-332 1208h-221l-332 -1208h-4l-278 1208h-217l387 -1487h211z" />
<glyph unicode="X" horiz-adv-x="1378" d="M819 762l498 725h-240l-377 -570v0l-376 570h-252l497 -725l-530 -762h242l411 610v0l400 -610h247z" />
<glyph unicode="Y" horiz-adv-x="1378" d="M29 1487l561 -889v-598h200v598l562 889h-236l-426 -715v0l-428 715h-233z" />
<glyph unicode="Z" horiz-adv-x="1264" d="M117 1487v-178h841l-911 -1141v-168h1169v178h-915l915 1135v174h-1099z" />
<glyph unicode="[" horiz-adv-x="575" d="M295 1347h223v148h-387v-1900h387v147h-223v1605z" />
<glyph unicode="\" horiz-adv-x="573" d="M471 -39h139l-510 1565h-137z" />
<glyph unicode="]" horiz-adv-x="575" d="M281 -258h-224v-147h387v1900h-387v-148h224v-1605z" />
<glyph unicode="^" horiz-adv-x="1071" d="M1042 547l-438 876h-147l-441 -876h160l354 710v0l355 -710h157z" />
<glyph unicode="_" d="M1151 -258v102h-1151v-102h1151z" />
<glyph unicode="`" horiz-adv-x="688" d="M297 1227h139l-184 293h-223z" />
<glyph unicode="a" horiz-adv-x="1149" d="M295 754q4 67 51 137q25 31 74 53q45 18 121 18q254 0 252 -174q0 -41 -7 -65q-8 -27 -39 -45q-53 -31 -260 -47q-141 -11 -223 -45q-84 -37 -125 -90q-41 -50 -53 -107q-14 -55 -12 -106q0 -144 96 -226q92 -86 242 -88q79 2 143 21q61 16 106 41q91 55 142 114v0 q2 -63 41 -112q37 -51 151 -53q31 2 56 8q22 6 43 12v133q-33 -8 -60 -8q-59 0 -59 67v619q-2 104 -49 166q-50 61 -119 90q-70 31 -133 41q-64 6 -101 6q-202 0 -321 -82q-125 -84 -125 -278h168zM793 375q-3 -111 -103 -180q-96 -72 -231 -74q-201 2 -199 190q0 54 27 86 q22 31 57 49q37 19 78 27q37 10 72 12q163 23 223 37q59 17 76 31v-178z" />
<glyph unicode="b" horiz-adv-x="1153" d="M315 950v537h-182v-1487h170v135h4q29 -47 96 -104q70 -60 205 -62q137 2 232 60q92 57 143 147q55 90 76 197q20 106 20 202q0 236 -114 385q-115 152 -332 154q-197 2 -318 -164v0zM612 950q99 0 156 -45t84 -115q27 -69 35 -147q6 -80 6 -149q0 -107 -27 -177 q-28 -71 -73 -114q-43 -39 -93 -58q-49 -18 -94 -18q-147 2 -217 123q-74 115 -74 295q0 57 9 125q8 69 34 133q31 63 90 104q62 41 164 43v0z" />
<glyph unicode="c" horiz-adv-x="1044" d="M997 719q-6 149 -100 270q-47 57 -121 92q-76 33 -184 33q-266 -4 -391 -174q-127 -170 -127 -428q0 -238 129 -387q125 -154 354 -156q121 2 203 43q82 39 131 101q51 63 78 135q24 69 28 135h-176q-59 -254 -258 -256q-92 0 -149 39q-60 39 -90 100q-31 64 -43 135 q-13 72 -13 142q-2 151 66 276q65 127 231 131q228 -4 256 -231h176z" />
<glyph unicode="d" horiz-adv-x="1153" d="M1020 1487h-182v-557v0q-37 63 -113 123q-37 28 -90 45q-51 16 -123 16q-215 -4 -326 -156q-112 -151 -112 -387q0 -96 22 -200q21 -107 72 -197t143 -145q88 -58 226 -60q81 0 165 35q82 37 142 145h4v-149h172v1487zM557 950q98 0 156 -45q57 -45 84 -115 q26 -69 34 -147q7 -80 7 -149q0 -107 -27 -177q-29 -71 -74 -114q-43 -39 -92 -58q-49 -18 -94 -18q-148 2 -217 123q-74 115 -74 295q0 57 8 125q8 69 35 133q31 63 90 104q62 41 164 43v0z" />
<glyph unicode="e" horiz-adv-x="1130" d="M860 340q-2 -64 -74 -135q-36 -31 -88 -53q-51 -25 -116 -25q-314 4 -314 354h789q0 293 -115 461q-117 170 -350 172q-266 -4 -391 -172q-127 -168 -127 -430q0 -238 129 -387q125 -154 352 -156q127 2 215 37q86 33 141 86q56 55 86 121q17 35 29 66q10 30 16 61h-182z M268 627q0 131 88 225q84 96 209 98q86 0 144 -24q55 -27 90 -74q37 -43 53 -102q16 -58 18 -123h-602z" />
<glyph unicode="f" horiz-adv-x="575" d="M541 1497q-37 10 -82 10q-279 2 -281 -239v-185h-147v-151h147v-932h182v932h183v151h-183v133q-2 127 109 127q37 0 72 -4v158z" />
<glyph unicode="g" horiz-adv-x="1153" d="M557 950q98 0 156 -45q57 -45 84 -115q26 -69 34 -147q7 -80 7 -149q0 -107 -27 -177q-29 -71 -74 -114q-43 -39 -92 -58q-49 -18 -94 -18q-148 2 -217 123q-74 115 -74 295q0 57 8 125q8 69 35 133q31 63 90 104q62 41 164 43v0zM850 1083v-153v0q-19 30 -45 65 q-27 31 -68 60q-73 57 -213 59q-217 -2 -332 -154q-118 -149 -118 -387q0 -96 24 -200q21 -107 76 -197t145 -147q93 -58 226 -60q110 2 184 47q72 43 109 107v0q0 -72 -5 -146q-8 -73 -36 -137q-27 -61 -90 -100q-64 -41 -177 -43q-39 -2 -125 29q-36 18 -69 53 q-35 33 -49 90h-183q17 -107 64 -170q47 -64 108 -98q64 -33 129 -43q64 -13 111 -13q186 2 291 66q106 61 149 149q47 93 58 181q6 88 6 149v993h-170z" />
<glyph unicode="h" horiz-adv-x="1147" d="M315 1487h-182v-1487h182v590q0 104 29 174q25 67 68 110t96 60q53 16 108 16q68 0 109 -14q43 -19 65 -49q41 -66 41 -178v-709h183v737q0 115 -33 191q-35 73 -92 114q-56 43 -121 58q-68 14 -133 14q-64 0 -113 -16q-51 -17 -90 -45q-37 -27 -63 -56q-27 -30 -50 -59 h-4v549z" />
<glyph unicode="i" horiz-adv-x="448" d="M315 1083h-182v-1083h182v1083zM315 1280v207h-182v-207h182z" />
<glyph unicode="j" horiz-adv-x="448" d="M133 1083v-1220q0 -88 -24 -111q-29 -22 -111 -22h-37v-158q39 -6 78 -6q100 2 158 33q57 28 82 71q26 45 32 92q4 46 4 80v1241h-182zM315 1280v207h-182v-207h182z" />
<glyph unicode="k" horiz-adv-x="1042" d="M315 612v875h-182v-1487h182v410l154 143v0l350 -553h217l-438 680l414 403h-232l-465 -471v0z" />
<glyph unicode="l" horiz-adv-x="448" d="M315 1487h-182v-1487h182v1487z" />
<glyph unicode="m" horiz-adv-x="1722" d="M133 1083v-1083h182v594q0 110 31 182q29 70 74 109t92 53q47 12 86 12q53 0 86 -16q33 -19 51 -49q35 -64 35 -135v-750h182v661q0 113 70 201q67 86 182 88q115 -2 162 -67q41 -70 41 -183v-700h182v750q0 112 -35 186q-34 72 -90 110q-53 41 -108 56q-58 12 -105 12 q-119 -2 -190 -49q-72 -47 -139 -127v0q-9 22 -27 53q-21 29 -53 58q-33 28 -82 47q-51 18 -125 18q-70 0 -125 -18q-55 -19 -96 -52q-39 -28 -64 -59q-26 -33 -43 -55h-4v153h-170z" />
<glyph unicode="n" horiz-adv-x="1147" d="M133 1083v-1083h182v590q0 110 33 182q29 70 74 109q45 41 92 55t86 14q133 0 184 -69q47 -72 47 -213v-668h183v737q0 115 -33 191q-35 73 -92 114q-56 43 -121 58q-68 14 -133 14q-137 -4 -217 -70q-39 -28 -66 -59q-26 -33 -43 -55h-6v153h-170z" />
<glyph unicode="o" d="M74 543q-2 -219 123 -391q122 -177 378 -183q261 6 381 183q121 172 121 391t-121 391q-120 176 -381 180q-256 -4 -378 -180q-125 -172 -123 -391v0zM260 543q0 57 14 129q15 69 48 135q34 65 98 106q61 41 155 43q99 -2 162 -43q64 -41 96 -106q33 -66 48 -135 q10 -72 10 -129q0 -54 -10 -123q-15 -72 -48 -139q-32 -66 -96 -107q-63 -47 -162 -47q-94 0 -155 47q-64 41 -98 107q-33 67 -48 139q-14 69 -14 123v0z" />
<glyph unicode="p" horiz-adv-x="1153" d="M612 950q99 0 156 -45t84 -115q27 -69 35 -147q6 -80 6 -149q0 -107 -27 -177q-28 -71 -73 -114q-43 -39 -93 -58q-49 -18 -94 -18q-147 2 -217 123q-74 115 -74 295q0 57 9 125q8 69 34 133q31 63 90 104q62 41 164 43v0zM133 -428h182v555v0q39 -66 113 -111t180 -47 q137 2 232 60q92 57 143 147q98 191 96 397q0 236 -114 387q-117 152 -334 154q-137 -2 -211 -57q-37 -25 -64 -58q-28 -34 -53 -69v0v153h-170v-1511z" />
<glyph unicode="q" horiz-adv-x="1153" d="M557 950q98 0 156 -45q57 -45 84 -115q26 -69 34 -147q7 -80 7 -149q0 -107 -27 -177q-29 -71 -74 -114q-43 -39 -92 -58q-49 -18 -94 -18q-148 2 -217 123q-74 115 -74 295q0 57 8 125q8 69 35 133q31 63 90 104q62 41 164 43v0zM850 1083v-153v0q-41 71 -115 127 q-74 55 -213 57q-215 -2 -330 -154q-118 -151 -118 -387q-2 -206 98 -397q55 -90 145 -147q91 -58 228 -60q110 2 184 47q72 45 109 111v0v-555h182v1511h-170z" />
<glyph unicode="r" horiz-adv-x="682" d="M133 1083v-1083h182v629q0 123 76 207q72 81 199 83h71v189q-20 6 -49 6q-100 0 -174 -57q-76 -58 -131 -154h-4v180h-170z" />
<glyph unicode="s" horiz-adv-x="1034" d="M924 774q2 25 -9 78q-10 51 -53 113q-39 61 -123 106q-84 41 -229 43q-166 0 -285 -84q-123 -84 -125 -262q0 -236 351 -287q192 -35 262 -78q37 -20 51 -45q12 -26 12 -59q-2 -92 -74 -131q-73 -41 -174 -41q-94 0 -151 25q-58 22 -88 57q-27 35 -37 74q-10 36 -10 65 h-176q2 -49 18 -112q14 -66 57 -125q45 -60 140 -99q92 -41 249 -43q189 2 308 97q118 94 120 262q0 55 -14 102q-18 43 -61 80q-84 72 -318 125q-168 41 -229 74q-62 30 -60 94q0 51 27 84q27 30 62 45q36 14 71 20q35 4 55 4q89 0 140 -18q51 -19 76 -47q26 -29 34 -58 q6 -30 6 -59h177z" />
<glyph unicode="t" horiz-adv-x="575" d="M176 1382v-301h-145v-151h145v-713q0 -49 10 -90q9 -43 33 -74q25 -30 68 -49q43 -18 108 -20q41 0 135 16v141h-63q-31 -2 -68 15q-39 16 -41 71v703h174v151h-174v301h-182z" />
<glyph unicode="u" horiz-adv-x="1137" d="M133 1083v-778q0 -94 35 -160q33 -63 82 -104q53 -37 115 -53q61 -19 120 -19q131 2 211 51q78 50 133 142l2 -4v-158h172v1083h-182v-596q0 -59 -12 -120q-14 -64 -49 -117q-33 -53 -92 -86q-60 -37 -146 -37q-88 0 -145 53q-62 53 -62 185v718h-182z" />
<glyph unicode="v" horiz-adv-x="1032" d="M16 1083l394 -1083h194l412 1083h-199l-305 -882h-4l-281 882h-211z" />
<glyph unicode="w" horiz-adv-x="1495" d="M31 1083l311 -1083h188l211 838h4l220 -838h188l313 1083h-180l-219 -850h-4l-211 850h-203l-209 -850h-6l-207 850h-196z" />
<glyph unicode="x" horiz-adv-x="1032" d="M41 1083l360 -526l-378 -557h229l260 408v0l268 -408h232l-379 557l364 526h-223l-250 -381v0l-250 381h-233z" />
<glyph unicode="y" horiz-adv-x="1034" d="M23 1083l401 -1112q-59 -159 -92 -206q-35 -46 -101 -43q-75 2 -110 18v-166q41 -14 78 -16q151 0 219 55q65 53 116 190q256 635 478 1280h-201l-289 -882h-4l-289 882h-206z" />
<glyph unicode="z" horiz-adv-x="1032" d="M113 1083v-151h602l-652 -789v-143h906v152h-664l645 782v149h-837z" />
<glyph unicode="{" horiz-adv-x="690" d="M86 483q76 -2 123 -73q45 -76 45 -195v-352q2 -127 68 -197q63 -71 143 -71h139v135h-90q-53 2 -74 51q-22 49 -22 119v350q0 88 -21 145q-22 56 -53 86q-31 33 -59 47q-33 15 -49 17v4q38 8 108 78q31 32 53 88q21 53 21 123v352q0 74 22 121q21 47 72 49h92v135h-139 q-80 0 -143 -70q-66 -67 -68 -198v-355q0 -114 -45 -188q-47 -76 -123 -76v-125z" />
<glyph unicode="|" horiz-adv-x="537" d="M195 -39h149v1565h-149v-1565z" />
<glyph unicode="}" horiz-adv-x="690" d="M604 608q-72 0 -119 76q-49 74 -49 188v355q-2 131 -65 198q-62 70 -146 70h-139v-135h90q55 -2 78 -49q18 -47 18 -121v-352q0 -74 25 -127q22 -56 53 -88q31 -33 60 -50q28 -18 45 -24v-4q-39 -6 -105 -70q-31 -33 -53 -88q-25 -55 -25 -137v-350q0 -70 -18 -119 q-21 -49 -76 -51h-92v-135h139q84 0 146 71q63 70 65 197v352q0 119 49 195q47 71 119 73v125z" />
<glyph unicode="~" horiz-adv-x="1208" d="M1008 676v0q-33 -58 -76 -101q-45 -47 -107 -47q-24 0 -78 25q-53 20 -120 49q-66 29 -129 51q-66 23 -113 23q-102 -2 -164 -60q-61 -59 -94 -127l74 -116v0q24 59 65 104q43 43 109 45q69 0 127 -22q57 -23 108 -52q51 -28 103 -49q53 -24 110 -24q84 0 148 57 q65 51 110 127z" />
<glyph unicode="&#xa4;" d="M993 1249v0l-119 -117v0q-124 103 -299 105q-174 -2 -299 -105v0l-118 117v0l-99 -100l113 -113q-102 -129 -102 -309q0 -176 102 -313l-111 -115l93 -94v0l114 121v0q131 -113 307 -113q177 0 308 113v0l114 -121v0l92 94l-110 115q102 137 102 313q0 180 -102 309 l113 113zM219 727q2 152 107 258q98 107 249 109q152 -2 254 -109q101 -106 103 -258q-2 -152 -103 -258q-98 -111 -254 -113q-151 2 -249 113q-105 106 -107 258v0z" />
<glyph unicode="&#xa6;" horiz-adv-x="537" d="M195 -39h149v608h-149v-608zM195 952h149v574h-149v-574z" />
<glyph unicode="&#xa7;" d="M954 1147q0 114 -35 190q-34 74 -92 115q-26 22 -57 37q-31 14 -66 22q-67 15 -133 15q-100 0 -170 -33q-69 -31 -116 -84q-88 -111 -86 -236q-2 -106 96 -206q-90 -50 -146 -123q-59 -74 -59 -205q-2 -127 82 -211t274 -188q177 -99 254 -168q72 -68 72 -138 q0 -55 -20 -88q-23 -34 -58 -53q-35 -16 -69 -22q-37 -9 -70 -9q-68 3 -107 27q-40 27 -61 64q-20 36 -27 77q-6 39 -6 64h-182q2 -203 119 -297q112 -92 289 -92q139 2 253 88q117 86 121 246q0 75 -28 133q-29 55 -78 102q84 49 147 127q64 78 66 205q0 127 -72 215 q-39 47 -104 92q-68 43 -166 90q-99 51 -162 94q-68 43 -106 78q-37 37 -52 68q-18 30 -18 57q2 94 65 133q60 35 125 35q74 0 115 -23q43 -24 59 -63q19 -35 25 -72q2 -37 2 -63h182zM889 467q0 -78 -39 -123q-41 -47 -105 -86v0q-319 197 -407 276q-47 43 -62 78 q-14 35 -14 74q0 74 39 123t100 78v0q328 -195 414 -277q47 -43 61 -76q13 -32 13 -67v0z" />
<glyph unicode="&#xa9;" horiz-adv-x="1526" d="M766 -39q330 4 557 223q229 217 233 561q-4 344 -233 559q-227 218 -557 222q-332 -4 -557 -222q-232 -215 -238 -559q6 -344 238 -561q225 -219 557 -223v0zM129 745q2 285 184 465q178 180 453 185q272 -5 450 -185q179 -180 183 -465q-4 -286 -183 -466 q-178 -185 -450 -187q-275 2 -453 187q-182 180 -184 466v0zM1036 598q-14 -88 -78 -141q-65 -56 -165 -56q-144 2 -222 107q-82 100 -82 242q0 147 78 243q74 94 219 96q205 -6 250 -188h139q-24 160 -131 244q-106 80 -260 80q-211 -2 -329 -133q-123 -134 -123 -345 q0 -206 127 -339q123 -140 334 -142q147 0 249 90q105 88 136 242h-142z" />
<glyph unicode="&#xab;" d="M526 924v0l-325 -256v-189l325 -256v0v182l-217 168l217 168v183zM950 924v0l-325 -256v-189l325 -256v0v182l-217 168l217 168v183z" />
<glyph unicode="&#xac;" horiz-adv-x="1208" d="M977 223h151v582h-1048v-150h897v-432z" />
<glyph unicode="&#xad;" horiz-adv-x="573" d="M598 598h-506v-150h506v150z" />
<glyph unicode="&#xae;" horiz-adv-x="1526" d="M766 -39q330 4 557 223q229 217 233 561q-4 344 -233 559q-227 218 -557 222q-332 -4 -557 -222q-232 -215 -238 -559q6 -344 238 -561q225 -219 557 -223v0zM129 745q2 285 184 465q178 180 453 185q272 -5 450 -185q179 -180 183 -465q-4 -286 -183 -466 q-178 -185 -450 -187q-275 2 -453 187q-182 180 -184 466v0zM600 684h158l237 -391h154l-256 397q100 12 168 72q63 57 65 176q0 258 -319 256h-342v-901h135v391zM600 1079h186q78 0 136 -22q59 -27 61 -111q0 -51 -16 -80q-17 -30 -48 -45q-63 -24 -155 -22h-164v280z" />
<glyph unicode="&#xb0;" horiz-adv-x="827" d="M414 1366q86 -2 143 -64q57 -63 59 -149q-2 -86 -59 -148q-57 -63 -143 -65q-84 2 -142 65q-59 62 -61 148q2 86 61 149q58 62 142 64v0zM715 1153q-2 131 -84 217q-86 82 -217 84q-131 -2 -213 -84q-88 -86 -88 -217t88 -213q82 -88 213 -88t217 88q82 82 84 213v0z" />
<glyph unicode="&#xb1;" horiz-adv-x="1208" d="M528 715h-448v-152h448v-332h152v332h448v152h-448v334h-152v-334zM80 0h1048v152h-1048v-152z" />
<glyph unicode="&#xb5;" d="M1012 0v1083h-183v-596q0 -59 -12 -120q-14 -64 -49 -117q-66 -119 -236 -123q-90 0 -147 53q-61 53 -61 185v718h-183v-1511h183v471h4q39 -45 86 -59q47 -15 80 -15q126 2 208 51q80 50 134 142l4 -4v-158h172z" />
<glyph unicode="&#xb6;" horiz-adv-x="1112" d="M481 -356h150v1718h248v-1718h149v1841h-512q-217 0 -346 -92q-131 -95 -131 -299q2 -164 123 -269q117 -110 319 -112v-1069z" />
<glyph unicode="&#xbb;" d="M201 924v0v-183l217 -168l-217 -168v-182v0l325 256v189zM625 924v0v-183l217 -168l-217 -168v-182v0l325 256v189z" />
<glyph unicode="&#x401;" horiz-adv-x="1354" d="M1249 178h-897v516h813v178h-813v437h883v178h-1083v-1487h1097v178zM600 1651v206h-182v-206h182zM1020 1651v206h-182v-206h182z" />
<glyph unicode="&#x402;" horiz-adv-x="1728" d="M733 807v502h504v178h-1208v-178h503v-1309h201v641q232 53 389 53q137 0 223 -61q82 -64 84 -213q-2 -135 -82 -189q-81 -55 -210 -53h-158v-178h217q229 4 336 135q104 125 104 283q0 166 -100 307q-51 65 -137 106t-209 41q-240 -2 -457 -65v0z" />
<glyph unicode="&#x403;" horiz-adv-x="1143" d="M152 1487v-1487h200v1309h772v178h-972zM948 1943h-223l-184 -292h139z" />
<glyph unicode="&#x404;" horiz-adv-x="1503" d="M969 842h-670q66 501 465 505q59 0 125 -10q65 -12 127 -45q63 -33 112 -94q25 -31 43 -70q17 -41 29 -90h195q-35 195 -189 338q-155 146 -442 150q-322 -4 -496 -217q-176 -213 -176 -557q4 -422 209 -609q197 -184 459 -182q47 0 139 16q92 17 199 68q106 51 192 158 q86 106 119 282h-195q-22 -104 -73 -172q-54 -67 -119 -106q-66 -37 -133 -51q-68 -17 -119 -17q-233 2 -346 156q-111 149 -125 385h670v162z" />
<glyph unicode="&#x405;" horiz-adv-x="1378" d="M1241 1051q-2 63 -18 145q-21 78 -78 154q-58 75 -172 127q-117 47 -312 49q-268 -4 -389 -142q-125 -135 -123 -317q0 -174 115 -254q113 -82 311 -121q349 -72 437 -133q51 -33 63 -76t12 -100q0 -78 -38 -127q-41 -49 -101 -76q-59 -26 -127 -35q-67 -12 -125 -12 q-69 0 -141 19q-72 16 -131 55t-96 106q-39 68 -39 168h-189q0 -80 27 -168q25 -90 88 -170q66 -77 184 -129q119 -51 301 -53q101 0 203 23q100 20 186 71q187 99 193 355q4 186 -111 282q-122 96 -456 168q-226 51 -299 98q-39 25 -56 58q-16 33 -16 78q0 86 37 137 q35 51 88 78q53 28 113 36q57 9 104 9q66 0 127 -13q31 -6 61 -18q29 -14 54 -33q53 -33 88 -92q33 -57 37 -147h188z" />
<glyph unicode="&#x406;" horiz-adv-x="504" d="M352 1487h-200v-1487h200v1487z" />
<glyph unicode="&#x407;" horiz-adv-x="573" d="M387 1487h-201v-1487h201v1487zM215 1651v206h-182v-206h182zM541 1651v206h-183v-206h183z" />
<glyph unicode="&#x408;" horiz-adv-x="1036" d="M684 1487v-1100q0 -111 -47 -180q-27 -35 -72 -53q-49 -21 -119 -21q-104 -2 -161 55q-62 54 -62 185v104h-188v-147q0 -54 20 -115q19 -63 64 -121q47 -55 129 -94q82 -37 209 -39q77 0 153 23q76 20 137 69q64 49 101 135q37 82 37 211v1088h-201z" />
<glyph unicode="&#x409;" horiz-adv-x="2304" d="M313 1487v-735q11 -611 -190 -609q-66 0 -94 9v-168q69 -13 137 -15q78 0 143 33q62 33 109 113q94 151 96 573v621h567v-1309h690q205 2 322 121q117 115 119 297q0 166 -101 307q-51 65 -137 106t-209 41h-483v615h-969zM1282 694h416q137 0 223 -61q82 -64 84 -213 q-2 -135 -82 -189q-82 -55 -211 -53h-430v516z" />
<glyph unicode="&#x40a;" horiz-adv-x="2351" d="M352 1487h-200v-1487h200v694h776v-694h690q205 2 322 121q117 115 119 297q0 166 -101 307q-51 65 -137 106t-209 41h-483v615h-201v-615h-776v615zM1329 694h416q137 0 223 -61q82 -64 84 -213q-2 -135 -82 -189q-82 -55 -211 -53h-430v516z" />
<glyph unicode="&#x40b;" horiz-adv-x="1728" d="M733 807v502h504v178h-1208v-178h503v-1309h201v641q205 51 389 53q139 0 225 -61q86 -64 89 -213v-420h200v418q0 166 -100 307q-51 65 -137 106t-209 41q-240 -2 -457 -65v0z" />
<glyph unicode="&#x40c;" horiz-adv-x="1382" d="M352 766v721h-200v-1487h200v522l234 223v0l520 -745h260l-635 887l619 600h-277l-721 -721v0zM971 1943h-224l-184 -292h139z" />
<glyph unicode="&#x40e;" horiz-adv-x="1364" d="M1118 1487l-432 -1016v0l-457 1016h-215l576 -1211q-47 -86 -78 -114q-31 -31 -86 -29q-70 0 -117 8v-166q66 -14 146 -16q92 -2 170 53q79 58 151 224l557 1251h-215zM487 1884h-102q2 -29 16 -74q13 -47 41 -94q31 -47 92 -80q60 -35 160 -35q105 0 164 35q61 33 90 80 q31 47 41 94q10 45 12 74h-100q-16 -70 -59 -111q-45 -45 -148 -45q-102 0 -145 45q-23 23 -35 50q-14 28 -27 61v0z" />
<glyph unicode="&#x40f;" horiz-adv-x="1487" d="M352 1487h-200v-1487h491v-321h201v321h491v1487h-200v-1309h-783v1309z" />
<glyph unicode="&#x410;" horiz-adv-x="1380" d="M985 434l147 -434h220l-537 1487h-227l-559 -1487h207l155 434h594zM453 610l237 656h4l219 -656h-460z" />
<glyph unicode="&#x411;" horiz-adv-x="1374" d="M152 1487v-1487h690q204 2 321 121q117 115 119 297q0 166 -100 307q-52 65 -138 106t-208 41h-484v437h846v178h-1046zM352 694h416q137 0 223 -61q82 -64 84 -213q-2 -135 -82 -189q-82 -55 -211 -53h-430v516z" />
<glyph unicode="&#x412;" horiz-adv-x="1388" d="M352 1315h365q168 0 239 -56q68 -55 68 -161q0 -133 -82 -187q-82 -55 -227 -53h-363v457zM152 0h638q250 2 379 131q127 125 127 309q0 97 -26 160q-29 64 -72 102q-41 39 -86 64q-47 24 -86 35q121 61 162 149q22 43 30 84q7 41 7 78q0 158 -105 264q-104 109 -315 111 h-653v-1487zM352 694h395q64 0 125 -8q64 -8 113 -37q51 -26 82 -76q29 -49 29 -129q0 -266 -316 -272h-428v522z" />
<glyph unicode="&#x413;" horiz-adv-x="1143" d="M152 1487v-1487h200v1309h772v178h-972z" />
<glyph unicode="&#x414;" horiz-adv-x="1472" d="M322 1487v-471q2 -250 -23 -436q-29 -189 -133 -402h-125v-499h184v321h1016v-321h184v499h-131v1309h-972zM1094 178h-725q163 344 153 799v332h572v-1131z" />
<glyph unicode="&#x415;" horiz-adv-x="1354" d="M1249 178h-897v516h813v178h-813v437h883v178h-1083v-1487h1097v178z" />
<glyph unicode="&#x416;" horiz-adv-x="2066" d="M938 1487v-715v0l-614 715h-256l528 -604l-555 -883h244l462 741v0l191 -213v-528h199v528l190 213v0l463 -741h244l-555 883l528 604h-256l-614 -715v0v715h-199z" />
<glyph unicode="&#x417;" horiz-adv-x="1388" d="M279 481h-189q0 -98 23 -188q12 -45 32 -88q19 -43 50 -80q63 -74 186 -119q121 -43 321 -45q222 -2 404 96q184 99 190 344q-2 164 -92 265q-90 98 -231 127q82 14 168 94q41 41 67 98q27 55 27 129q-2 190 -148 301q-145 109 -380 111q-181 -2 -295 -49 q-117 -52 -181 -127q-63 -76 -88 -158q-26 -82 -26 -146h188q4 177 125 240q119 64 254 61q53 0 113 -6q57 -8 110 -34q53 -27 88 -78q33 -51 33 -137q0 -58 -29 -101q-30 -43 -84 -74q-108 -57 -243 -57h-113v-164h156q157 0 264 -63q108 -66 110 -228q-2 -79 -36 -129 q-39 -51 -99 -81q-59 -29 -125 -41q-67 -15 -131 -15q-184 -2 -299 72q-118 72 -120 270v0z" />
<glyph unicode="&#x418;" horiz-adv-x="1495" d="M352 1487h-200v-1487h231l756 1200h4v-1200h200v1487h-229l-754 -1217h-8v1217z" />
<glyph unicode="&#x419;" horiz-adv-x="1495" d="M352 1487h-200v-1487h231l756 1200h4v-1200h200v1487h-229l-754 -1217h-8v1217zM526 1884h-102q2 -29 16 -74q13 -47 41 -94q31 -47 92 -80q60 -35 160 -35q105 0 164 35q61 33 90 80q31 47 41 94q10 45 12 74h-100q-16 -70 -59 -111q-45 -45 -148 -45q-102 0 -145 45 q-23 23 -35 50q-14 28 -27 61v0z" />
<glyph unicode="&#x41a;" horiz-adv-x="1382" d="M352 766v721h-200v-1487h200v522l234 223v0l520 -745h260l-635 887l619 600h-277l-721 -721v0z" />
<glyph unicode="&#x41b;" horiz-adv-x="1433" d="M313 1487v-735q11 -611 -190 -609q-66 0 -94 9v-168q69 -13 137 -15q78 0 143 33q62 33 109 113q94 151 96 573v621h567v-1309h201v1487h-969z" />
<glyph unicode="&#x41c;" horiz-adv-x="1724" d="M152 1487v-1487h194v879q-4 116 -6 370h6l418 -1249h198l420 1249h2q-4 -256 -6 -370v-879h195v1487h-285l-424 -1258h-4l-422 1258h-286z" />
<glyph unicode="&#x41d;" horiz-adv-x="1481" d="M352 1487h-200v-1487h200v694h776v-694h201v1487h-201v-615h-776v615z" />
<glyph unicode="&#x41e;" horiz-adv-x="1630" d="M1331 743q-2 -266 -135 -432q-137 -170 -381 -172q-244 2 -379 174q-137 168 -137 434q0 269 137 433q135 165 379 167q244 -2 381 -169q133 -164 135 -435v0zM1538 743q0 125 -33 260q-37 136 -119 254q-82 119 -223 193q-69 37 -155 57q-89 19 -193 19q-102 0 -188 -19 q-86 -20 -156 -57q-141 -74 -223 -193q-82 -118 -119 -254q-37 -135 -37 -260q0 -120 37 -256q37 -135 119 -254q82 -118 223 -192q139 -78 344 -80q209 2 348 80q141 74 223 192q82 119 119 254q33 136 33 256v0z" />
<glyph unicode="&#x41f;" horiz-adv-x="1481" d="M152 1487v-1487h200v1309h776v-1309h201v1487h-1177z" />
<glyph unicode="&#x420;" horiz-adv-x="1354" d="M352 1315h408q129 0 211 -54q82 -55 84 -194q-2 -148 -84 -207q-82 -63 -219 -61h-400v516zM352 627h469q240 4 342 145q101 135 98 297q-2 184 -116 301q-115 115 -324 117h-669v-1487h200v627z" />
<glyph unicode="&#x421;" horiz-adv-x="1495" d="M1395 1038q-21 195 -170 338q-152 146 -441 150q-325 -2 -505 -213q-187 -211 -187 -561q4 -422 209 -609q197 -184 459 -182q47 0 139 14q92 15 199 70q106 55 192 176q86 119 119 326h-195q-26 -127 -73 -207q-49 -82 -113 -125q-61 -41 -125 -59q-61 -17 -113 -17 q-272 2 -382 180q-58 84 -82 197q-27 113 -27 242q2 295 143 442q138 147 342 147q58 0 119 -10q64 -12 123 -45q61 -33 109 -94q47 -61 65 -160h195z" />
<glyph unicode="&#x422;" horiz-adv-x="1264" d="M733 1309h504v178h-1208v-178h503v-1309h201v1309z" />
<glyph unicode="&#x423;" horiz-adv-x="1364" d="M1118 1487l-432 -1016v0l-457 1016h-215l576 -1211q-47 -86 -78 -114q-31 -31 -86 -29q-70 0 -117 8v-166q66 -14 146 -16q92 -2 170 53q79 58 151 224l557 1251h-215z" />
<glyph unicode="&#x424;" horiz-adv-x="1722" d="M962 1487h-198v-154q-346 -4 -518 -180q-172 -174 -172 -410q0 -235 172 -407q168 -178 518 -182v-154h198v154q351 4 523 182q168 172 168 407q0 236 -170 410q-170 176 -521 180v154zM281 743q2 230 137 332q133 100 346 100v-864q-213 0 -346 103q-135 104 -137 329v0 zM1446 743q-2 -225 -137 -329q-134 -103 -347 -103v864q213 0 347 -100q135 -102 137 -332v0z" />
<glyph unicode="&#x425;" horiz-adv-x="1378" d="M819 762l498 725h-240l-377 -570v0l-376 570h-252l497 -725l-530 -762h242l411 610v0l400 -610h247z" />
<glyph unicode="&#x426;" horiz-adv-x="1503" d="M352 1487h-200v-1487h1124v-321h184v499h-131v1309h-201v-1309h-776v1309z" />
<glyph unicode="&#x427;" horiz-adv-x="1407" d="M152 1487v-463q2 -231 133 -317q125 -87 297 -84q274 4 473 65v-688h200v1487h-200v-633q-191 -49 -412 -53q-119 -2 -203 49q-86 51 -88 178v459h-200z" />
<glyph unicode="&#x428;" horiz-adv-x="1999" d="M352 1487h-200v-1487h1695v1487h-201v-1309h-546v1309h-201v-1309h-547v1309z" />
<glyph unicode="&#x429;" horiz-adv-x="2013" d="M352 1487h-200v-1487h1644v-321h182v499h-131v1309h-201v-1309h-546v1309h-201v-1309h-547v1309z" />
<glyph unicode="&#x42a;" horiz-adv-x="1493" d="M471 1487h-473v-172h272v-1315h690q205 2 322 121q117 115 119 297q0 166 -101 307q-51 65 -137 106t-209 41h-483v615zM471 694h416q137 0 223 -61q82 -64 84 -213q-2 -135 -82 -189q-82 -55 -211 -53h-430v516z" />
<glyph unicode="&#x42b;" horiz-adv-x="1821" d="M352 1487h-200v-1487h690q204 2 321 121q117 115 119 297q0 166 -100 307q-52 65 -138 106t-208 41h-484v615zM352 694h416q137 0 223 -61q82 -64 84 -213q-2 -135 -82 -189q-82 -55 -211 -53h-430v516zM1669 1487h-201v-1487h201v1487z" />
<glyph unicode="&#x42c;" horiz-adv-x="1374" d="M352 1487h-200v-1487h690q204 2 321 121q117 115 119 297q0 166 -100 307q-52 65 -138 106t-208 41h-484v615zM352 694h416q137 0 223 -61q82 -64 84 -213q-2 -135 -82 -189q-82 -55 -211 -53h-430v516z" />
<glyph unicode="&#x42d;" horiz-adv-x="1495" d="M526 842v-162h670q-12 -236 -123 -385q-111 -154 -348 -156q-25 0 -51 4q-31 4 -64 13q-65 14 -133 51q-65 39 -119 106q-53 68 -77 172h-195q35 -176 123 -282q86 -107 192 -158q107 -51 199 -68q92 -16 135 -16q266 -2 463 182q199 187 205 609q-2 344 -176 557 t-496 217q-285 -4 -438 -150q-156 -143 -193 -338h195q14 49 33 90q18 39 43 70q49 61 110 94q64 33 129 45q66 10 121 10q399 -4 465 -505h-670z" />
<glyph unicode="&#x42e;" horiz-adv-x="2038" d="M352 1487h-200v-1487h200v694h236q8 -119 45 -246q37 -126 112 -237q146 -242 498 -250q205 2 342 80q135 74 215 192q80 119 115 254q30 136 30 256q0 125 -30 260q-33 136 -111 254q-76 119 -207 193q-135 74 -333 76q-338 -6 -494 -213q-156 -201 -182 -441h-236v615z M1739 743q0 -266 -121 -432q-121 -170 -354 -172q-224 2 -349 172q-127 166 -127 432q0 271 123 435q121 167 353 169q225 -2 350 -169q125 -164 125 -435v0z" />
<glyph unicode="&#x42f;" horiz-adv-x="1442" d="M1290 1487h-661q-191 2 -336 -84q-70 -45 -111 -125q-43 -80 -43 -199t43 -198q39 -80 99 -131q61 -50 127 -74q65 -27 122 -39l-421 -637h251l398 637h331v-637h201v1487zM1089 809h-421q-56 0 -111 12q-57 12 -104 39q-48 31 -76 82q-31 49 -31 125q0 86 31 137 q26 51 67 74q41 24 88 33q45 4 82 4h475v-506z" />
<glyph unicode="&#x430;" horiz-adv-x="1149" d="M295 754q4 67 51 137q25 31 74 53q45 18 121 18q254 0 252 -174q0 -41 -7 -65q-8 -27 -39 -45q-53 -31 -260 -47q-141 -11 -223 -45q-84 -37 -125 -90q-41 -50 -53 -107q-14 -55 -12 -106q0 -144 96 -226q92 -86 242 -88q79 2 143 21q61 16 106 41q91 55 142 114v0 q2 -63 41 -112q37 -51 151 -53q31 2 56 8q22 6 43 12v133q-33 -8 -60 -8q-59 0 -59 67v619q-2 104 -49 166q-50 61 -119 90q-70 31 -133 41q-64 6 -101 6q-202 0 -321 -82q-125 -84 -125 -278h168zM793 375q-3 -111 -103 -180q-96 -72 -231 -74q-201 2 -199 190q0 54 27 86 q22 31 57 49q37 19 78 27q37 10 72 12q163 23 223 37q59 17 76 31v-178z" />
<glyph unicode="&#x431;" horiz-adv-x="1167" d="M846 1487q-17 -43 -68 -64q-53 -22 -194 -43q-252 -41 -381 -235q-129 -195 -129 -486q2 -368 141 -530q133 -160 346 -160q272 6 395 178q123 166 123 379q0 215 -119 373q-120 160 -348 164q-235 -6 -381 -207v0q68 344 416 385q66 8 121 23q53 12 98 34q45 25 82 70 t64 119h-166zM577 127q-96 0 -157 39q-64 39 -98 98q-33 60 -48 131q-14 70 -14 131q0 131 76 254q76 127 241 131q99 -2 162 -43q64 -43 97 -106q32 -62 47 -125q10 -66 10 -111t-10 -108q-15 -66 -47 -133q-33 -66 -95 -111q-63 -47 -164 -47v0z" />
<glyph unicode="&#x432;" horiz-adv-x="1116" d="M315 932h269q118 0 168 -33q45 -35 45 -100q0 -88 -47 -125q-52 -39 -170 -39h-265v297zM315 491h308q233 0 237 -172q-2 -172 -219 -167h-326v339zM133 0h512q395 6 397 287q0 71 -20 123q-23 49 -60 81q-34 35 -77 56q-43 18 -88 26q73 23 129 80q51 60 53 154 q0 117 -86 196q-88 78 -268 80h-492v-1083z" />
<glyph unicode="&#x433;" horiz-adv-x="858" d="M133 1083v-1083h182v932h523v151h-705z" />
<glyph unicode="&#x434;" horiz-adv-x="1178" d="M262 1083v-352q6 -301 -121 -579h-121v-469h166v317h789v-317h166v469h-121v931h-758zM838 152h-508q112 251 108 583v197h400v-780z" />
<glyph unicode="&#x435;" horiz-adv-x="1130" d="M860 340q-2 -64 -74 -135q-36 -31 -88 -53q-51 -25 -116 -25q-314 4 -314 354h789q0 293 -115 461q-117 170 -350 172q-266 -4 -391 -172q-127 -168 -127 -430q0 -238 129 -387q125 -154 352 -156q127 2 215 37q86 33 141 86q56 55 86 121q17 35 29 66q10 30 16 61h-182z M268 627q0 131 88 225q84 96 209 98q86 0 144 -24q55 -27 90 -74q37 -43 53 -102q16 -58 18 -123h-602z" />
<glyph unicode="&#x436;" horiz-adv-x="1503" d="M833 600v483h-174v-479v0l-403 479h-231l419 -477l-438 -606h219l352 485v0l82 -96v-389h174v389l93 96v0l344 -485h217l-438 606l421 477h-233l-404 -483v0z" />
<glyph unicode="&#x437;" horiz-adv-x="1032" d="M264 774q29 182 250 182q82 0 150 -32q69 -37 71 -125q0 -80 -43 -123q-47 -45 -166 -45h-98v-144h109q104 0 167 -41q64 -45 66 -139q-2 -94 -74 -137q-73 -43 -178 -43q-139 0 -205 51q-65 49 -77 162h-179q9 -72 33 -137q25 -66 76 -119q53 -53 141 -82 q88 -31 219 -33q183 2 307 82q123 80 125 232q0 69 -18 118q-21 50 -55 80q-35 33 -72 53q-41 19 -78 31q72 19 129 78q58 57 60 162q-2 133 -113 221q-111 86 -297 88q-113 0 -188 -33q-80 -30 -129 -84q-50 -51 -74 -110q-27 -60 -33 -113h174z" />
<glyph unicode="&#x438;" horiz-adv-x="1173" d="M315 1083h-182v-1083h191l530 811h4v-811h182v1083h-190l-531 -811h-4v811z" />
<glyph unicode="&#x439;" horiz-adv-x="1173" d="M315 1083h-182v-1083h191l530 811h4v-811h182v1083h-190l-531 -811h-4v811zM393 1487h-102q-4 -68 55 -170q33 -47 96 -78q64 -35 166 -35q103 0 166 35q62 33 92 80q31 47 41 94q8 45 8 74h-100q-18 -68 -61 -113q-45 -51 -150 -51q-104 0 -151 49q-48 45 -60 115v0z " />
<glyph unicode="&#x43a;" horiz-adv-x="1042" d="M315 612v471h-182v-1083h182v410l154 143v0l350 -553h217l-438 680l414 403h-232l-465 -471v0z" />
<glyph unicode="&#x43b;" horiz-adv-x="1167" d="M242 1083v-583q0 -230 -31 -299q-14 -37 -43 -49q-27 -15 -68 -15q-49 0 -73 4v-141q43 -14 116 -16q131 0 207 106q72 105 74 348v494h428v-932h182v1083h-792z" />
<glyph unicode="&#x43c;" horiz-adv-x="1442" d="M133 1083v-1083h178v629q0 90 -4 161q-6 70 -6 72h14l340 -862h131l340 862h15q-6 -16 -11 -233v-629h179v1083h-252l-334 -850v0l-334 850h-256z" />
<glyph unicode="&#x43d;" horiz-adv-x="1137" d="M315 1083h-182v-1083h182v496h506v-496h182v1083h-182v-436h-506v436z" />
<glyph unicode="&#x43e;" d="M74 543q-2 -219 123 -391q122 -177 378 -183q261 6 381 183q121 172 121 391t-121 391q-120 176 -381 180q-256 -4 -378 -180q-125 -172 -123 -391v0zM260 543q0 57 14 129q15 69 48 135q34 65 98 106q61 41 155 43q99 -2 162 -43q64 -41 96 -106q33 -66 48 -135 q10 -72 10 -129q0 -54 -10 -123q-15 -72 -48 -139q-32 -66 -96 -107q-63 -47 -162 -47q-94 0 -155 47q-64 41 -98 107q-33 67 -48 139q-14 69 -14 123v0z" />
<glyph unicode="&#x43f;" horiz-adv-x="1137" d="M133 1083v-1083h182v932h506v-932h182v1083h-870z" />
<glyph unicode="&#x440;" horiz-adv-x="1153" d="M612 950q99 0 156 -45t84 -115q27 -69 35 -147q6 -80 6 -149q0 -107 -27 -177q-28 -71 -73 -114q-43 -39 -93 -58q-49 -18 -94 -18q-147 2 -217 123q-74 115 -74 295q0 57 9 125q8 69 34 133q31 63 90 104q62 41 164 43v0zM133 -428h182v555v0q39 -66 113 -111t180 -47 q137 2 232 60q92 57 143 147q98 191 96 397q0 236 -114 387q-117 152 -334 154q-137 -2 -211 -57q-37 -25 -64 -58q-28 -34 -53 -69v0v153h-170v-1511z" />
<glyph unicode="&#x441;" horiz-adv-x="1044" d="M997 719q-6 149 -100 270q-47 57 -121 92q-76 33 -184 33q-266 -4 -391 -174q-127 -170 -127 -428q0 -238 129 -387q125 -154 354 -156q121 2 203 43q82 39 131 101q51 63 78 135q24 69 28 135h-176q-59 -254 -258 -256q-92 0 -149 39q-60 39 -90 100q-31 64 -43 135 q-13 72 -13 142q-2 151 66 276q65 127 231 131q228 -4 256 -231h176z" />
<glyph unicode="&#x442;" horiz-adv-x="934" d="M12 1083v-151h357v-932h182v932h356v151h-895z" />
<glyph unicode="&#x443;" horiz-adv-x="1034" d="M23 1083l401 -1112q-59 -159 -92 -206q-35 -46 -101 -43q-75 2 -110 18v-166q41 -14 78 -16q151 0 219 55q65 53 116 190q256 635 478 1280h-201l-289 -882h-4l-289 882h-206z" />
<glyph unicode="&#x444;" horiz-adv-x="1702" d="M942 115h4q37 -58 103 -101q63 -43 169 -45q218 2 316 166q96 162 96 424q-2 240 -108 395q-109 158 -293 160q-121 -2 -187 -53q-32 -25 -57 -51q-25 -29 -43 -54v0v531h-174v-529v0q-31 50 -100 103q-70 51 -193 53q-182 -4 -287 -162q-108 -155 -108 -395 q0 -262 96 -422q96 -164 309 -166q109 2 179 51q71 50 104 107v0v-555h174v543zM1442 539q-2 -412 -258 -412q-80 -2 -156 76q-37 41 -59 116q-27 74 -27 189q-2 190 49 317t193 131q129 -2 194 -127q64 -122 64 -290v0zM268 537q0 167 60 290q30 60 77 95q48 34 111 34 q139 -2 199 -133q53 -131 53 -321q0 -115 -23 -189q-24 -71 -65 -114q-37 -39 -82 -56q-43 -16 -82 -16q-250 0 -248 410v0z" />
<glyph unicode="&#x445;" horiz-adv-x="1032" d="M633 557l364 526h-223l-250 -381v0l-250 381h-233l360 -526l-378 -557h229l260 408v0l268 -408h232z" />
<glyph unicode="&#x446;" horiz-adv-x="1171" d="M315 1083h-182v-1083h827v-317h164v469h-119v931h-182v-931h-508v931z" />
<glyph unicode="&#x447;" horiz-adv-x="1096" d="M113 1083v-358q2 -162 102 -223q47 -31 107 -45q57 -15 116 -15q180 0 342 41v-483h182v1083h-182v-448q-63 -19 -143 -27q-80 -10 -143 -10q-82 0 -140 35q-59 33 -59 119v331h-182z" />
<glyph unicode="&#x448;" horiz-adv-x="1726" d="M315 1083h-182v-1083h1460v1083h-182v-931h-457v931h-182v-931h-457v931z" />
<glyph unicode="&#x449;" horiz-adv-x="1763" d="M315 1083h-182v-1083h1411v-317h166v469h-121v931h-182v-931h-455v931h-182v-931h-455v931z" />
<glyph unicode="&#x44a;" horiz-adv-x="1186" d="M0 1083v-151h260v-932h444q220 2 316 94q92 90 92 219q0 148 -100 240q-103 92 -312 94h-258v436h-442zM442 496h260q224 -2 224 -172q0 -88 -50 -129q-49 -43 -174 -43h-260v344z" />
<glyph unicode="&#x44b;" horiz-adv-x="1487" d="M1354 1083h-183v-1083h183v1083zM315 1083h-182v-1083h444q220 2 316 94q92 90 92 219q0 148 -100 240q-103 92 -312 94h-258v436zM315 496h260q224 -2 224 -172q0 -88 -49 -129q-50 -43 -175 -43h-260v344z" />
<glyph unicode="&#x44c;" horiz-adv-x="1059" d="M315 1083h-182v-1083h444q220 2 316 94q92 90 92 219q0 148 -100 240q-103 92 -312 94h-258v436zM315 496h260q224 -2 224 -172q0 -88 -49 -129q-50 -43 -175 -43h-260v344z" />
<glyph unicode="&#x44d;" horiz-adv-x="1057" d="M788 631h-387v-144h387q0 -135 -71 -243q-74 -115 -223 -117q-205 0 -269 211h-178q12 -62 45 -125q31 -66 86 -121q55 -53 135 -86q80 -35 187 -37q229 4 356 158q125 154 127 391q0 260 -121 426q-125 168 -381 170q-186 -4 -299 -123q-112 -117 -129 -266h176 q39 223 262 225q146 -2 224 -98q73 -96 73 -221v0z" />
<glyph unicode="&#x44e;" horiz-adv-x="1565" d="M315 1083h-182v-1083h182v496h215q13 -205 127 -361q113 -160 353 -164q258 6 372 183q109 172 109 389q0 219 -109 391q-114 176 -372 180q-226 -2 -340 -139q-115 -135 -140 -328h-215v436zM717 543q0 57 10 129q8 69 39 135q31 65 90 106t154 43q94 -2 153 -43 q58 -41 88 -106q31 -66 43 -135q8 -72 8 -129q0 -54 -8 -123q-8 -72 -39 -137q-30 -66 -88 -107q-59 -47 -157 -47q-95 0 -154 47q-59 41 -90 107q-31 65 -39 137q-10 69 -10 123v0z" />
<glyph unicode="&#x44f;" horiz-adv-x="1071" d="M938 1083h-461q-385 -2 -391 -315q0 -68 27 -121q22 -51 59 -92q37 -37 80 -59q41 -25 78 -33l-269 -463h207l256 457h232v-457h182v1083zM756 600h-285q-203 -2 -203 166q0 164 203 166h285v-332z" />
<glyph unicode="&#x451;" horiz-adv-x="1130" d="M860 340q-2 -64 -74 -135q-36 -31 -88 -53q-51 -25 -116 -25q-314 4 -314 354h789q0 293 -115 461q-117 170 -350 172q-266 -4 -391 -172q-127 -168 -127 -430q0 -238 129 -387q125 -154 352 -156q127 2 215 37q86 33 141 86q56 55 86 121q17 35 29 66q10 30 16 61h-182z M268 627q0 131 88 225q84 96 209 98q86 0 144 -24q55 -27 90 -74q37 -43 53 -102q16 -58 18 -123h-602zM487 1280v207h-182v-207h182zM860 1280v207h-182v-207h182z" />
<glyph unicode="&#x452;" horiz-adv-x="1147" d="M133 1487v-137h-123v-152h123v-1198h182v590q0 104 29 174q25 67 68 110t96 60q53 16 108 16q68 0 109 -14q43 -19 65 -49q41 -66 41 -178q2 -332 -51 -539q-61 -205 -264 -246v-151v0q311 49 410 317q92 266 88 647q0 115 -33 191q-35 73 -92 114q-56 43 -121 58 q-68 14 -133 14q-64 0 -113 -16q-51 -17 -90 -45q-37 -27 -63 -56q-27 -30 -50 -59h-4v260h322v152h-322v137h-182z" />
<glyph unicode="&#x453;" horiz-adv-x="858" d="M133 1083v-1083h182v932h523v151h-705zM764 1515h-234l-172 -235h140z" />
<glyph unicode="&#x454;" horiz-adv-x="1034" d="M240 631q0 125 77 221q74 96 220 98q223 -2 262 -225h182q-14 149 -131 266q-119 119 -309 123q-246 -2 -369 -170q-127 -166 -127 -426q0 -237 129 -391q125 -154 354 -158q111 2 191 37q80 33 135 86q106 115 127 246h-182q-62 -211 -265 -211q-147 2 -221 117 q-73 108 -73 243h387v144h-387z" />
<glyph unicode="&#x455;" horiz-adv-x="1034" d="M924 774q2 25 -9 78q-10 51 -53 113q-39 61 -123 106q-84 41 -229 43q-166 0 -285 -84q-123 -84 -125 -262q0 -236 351 -287q192 -35 262 -78q37 -20 51 -45q12 -26 12 -59q-2 -92 -74 -131q-73 -41 -174 -41q-94 0 -151 25q-58 22 -88 57q-27 35 -37 74q-10 36 -10 65 h-176q2 -49 18 -112q14 -66 57 -125q45 -60 140 -99q92 -41 249 -43q189 2 308 97q118 94 120 262q0 55 -14 102q-18 43 -61 80q-84 72 -318 125q-168 41 -229 74q-62 30 -60 94q0 51 27 84q27 30 62 45q36 14 71 20q35 4 55 4q89 0 140 -18q51 -19 76 -47q26 -29 34 -58 q6 -30 6 -59h177z" />
<glyph unicode="&#x456;" horiz-adv-x="448" d="M315 1083h-182v-1083h182v1083zM315 1280v207h-182v-207h182z" />
<glyph unicode="&#x457;" horiz-adv-x="573" d="M377 1083h-182v-1083h182v1083zM215 1280v207h-182v-207h182zM539 1280v207h-183v-207h183z" />
<glyph unicode="&#x458;" horiz-adv-x="448" d="M133 1083v-1220q0 -88 -24 -111q-29 -22 -111 -22h-37v-158q39 -6 78 -6q100 2 158 33q57 28 82 71q26 45 32 92q4 46 4 80v1241h-182zM315 1280v207h-182v-207h182z" />
<glyph unicode="&#x459;" horiz-adv-x="1778" d="M242 1083v-583q0 -230 -31 -299q-14 -37 -43 -49q-27 -15 -68 -15q-49 0 -73 4v-141q43 -14 116 -16q131 0 207 106q72 105 74 348v494h428v-932h444q219 2 316 94q92 90 92 219q0 148 -101 240q-102 92 -311 94h-258v436h-792zM1034 496h260q223 -2 223 -172 q0 -88 -49 -129q-49 -43 -174 -43h-260v344z" />
<glyph unicode="&#x45a;" horiz-adv-x="1747" d="M315 1083h-182v-1083h182v496h506v-496h445q219 2 315 94q92 90 92 219q0 148 -100 240q-103 92 -312 94h-258v436h-182v-436h-506v436zM1003 496h261q223 -2 223 -172q0 -88 -49 -129q-50 -43 -174 -43h-261v344z" />
<glyph unicode="&#x45b;" horiz-adv-x="1147" d="M133 1487v-137h-123v-152h123v-1198h182v590q0 104 29 174q25 67 68 110t96 60q53 16 108 16q68 0 109 -14q43 -19 65 -49q41 -66 41 -178v-709h183v737q0 115 -33 191q-35 73 -92 114q-56 43 -121 58q-68 14 -133 14q-64 0 -113 -16q-51 -17 -90 -45q-37 -27 -63 -56 q-27 -30 -50 -59h-4v260h322v152h-322v137h-182z" />
<glyph unicode="&#x45c;" horiz-adv-x="1042" d="M315 612v471h-182v-1083h182v410l154 143v0l350 -553h217l-438 680l414 403h-232l-465 -471v0zM848 1515h-234l-172 -235h140z" />
<glyph unicode="&#x45e;" horiz-adv-x="1034" d="M23 1083l401 -1112q-59 -159 -92 -206q-35 -46 -101 -43q-75 2 -110 18v-166q41 -14 78 -16q151 0 219 55q65 53 116 190q256 635 478 1280h-201l-289 -882h-4l-289 882h-206zM305 1487h-102q-4 -68 55 -170q33 -47 96 -78q64 -35 166 -35q103 0 166 35q61 33 92 80 t41 94q8 45 8 74h-100q-18 -68 -61 -113q-46 -51 -150 -51t-151 49q-48 45 -60 115v0z" />
<glyph unicode="&#x45f;" horiz-adv-x="1145" d="M315 1083h-182v-1083h348v-317h183v317h348v1083h-183v-931h-514v931z" />
<glyph unicode="&#x490;" horiz-adv-x="1143" d="M152 1487v-1487h200v1309h772v352h-200v-174h-772z" />
<glyph unicode="&#x491;" horiz-adv-x="858" d="M133 1083v-1083h182v932h523v284h-183v-133h-522z" />
<glyph unicode="&#x2013;" d="M1151 598h-1151v-150h1151v150z" />
<glyph unicode="&#x2014;" horiz-adv-x="2068" d="M2068 598h-2068v-150h2068v150z" />
<glyph unicode="&#x2018;" horiz-adv-x="459" d="M350 1192h-110q0 16 4 31v30q4 35 12 66q18 67 94 84v96v0q-123 -29 -170 -115q-49 -88 -47 -209v-202h217v219z" />
<glyph unicode="&#x2019;" horiz-adv-x="459" d="M109 1266h110q0 -74 -20 -136q-23 -63 -90 -73v-95q20 3 55 17q35 10 72 43q38 33 63 96q27 62 27 164v203h-217v-219z" />
<glyph unicode="&#x201a;" horiz-adv-x="573" d="M178 0h111q0 -74 -21 -135q-22 -64 -90 -74v-94q21 2 55 16q35 11 72 43q39 33 64 97q26 61 26 163v203h-217v-219z" />
<glyph unicode="&#x201c;" horiz-adv-x="690" d="M635 1192h-109q0 16 4 31v30q4 35 13 66q16 67 92 84v96v0q-121 -29 -168 -115q-49 -88 -47 -209v-202h215v219zM295 1192h-111q0 16 4 31v30q4 35 13 66q18 67 94 84v96v0q-123 -29 -170 -115q-47 -88 -45 -209v-202h215v219z" />
<glyph unicode="&#x201d;" horiz-adv-x="690" d="M55 1266h111q0 -74 -21 -136q-22 -63 -90 -73v-95q21 3 56 17q34 10 71 43q39 33 64 96q26 62 26 164v203h-217v-219zM395 1266h111q0 -74 -21 -136q-22 -63 -90 -73v-95q21 3 56 17q34 10 71 43q39 33 64 96q26 62 26 164v203h-217v-219z" />
<glyph unicode="&#x201e;" horiz-adv-x="690" d="M55 0h111q0 -74 -21 -135q-22 -64 -90 -74v-94q21 2 56 16q34 11 71 43q39 33 64 97q26 61 26 163v203h-217v-219zM395 0h111q0 -74 -21 -135q-22 -64 -90 -74v-94q21 2 56 16q34 11 71 43q39 33 64 97q26 61 26 163v203h-217v-219z" />
<glyph unicode="&#x2020;" d="M674 893h389v156h-389v436h-193v-436h-391v-156h391v-1221h193v1221z" />
<glyph unicode="&#x2021;" d="M422 786q-105 176 -105 289q-2 70 64 158q35 41 92 69q55 27 139 27q131 -2 207 -82q76 -82 76 -215v-18h182v32q0 170 -104 304q-105 133 -340 137q-148 0 -246 -39q-100 -41 -158 -107q-57 -63 -82 -135q-24 -76 -24 -141q0 -80 33 -150q26 -69 55 -129h-143v-129h223 q35 -61 39 -149q2 -57 -43 -166q-27 -53 -76 -109q-51 -55 -133 -112l100 -144v0q119 82 242 84q59 0 117 -12q57 -12 112 -33q55 -18 107 -32q49 -17 96 -17q141 0 264 101l-86 135q-22 -23 -68 -43q-45 -21 -90 -21q-65 2 -155 37q-45 16 -92 27q-50 10 -99 10 q-153 -4 -272 -78v2q250 191 248 383q0 82 -21 137h287v129h-346z" />
<glyph unicode="&#x2022;" horiz-adv-x="725" d="M690 743q-2 140 -96 232q-92 94 -232 96q-139 -2 -229 -96q-94 -92 -96 -232q2 -139 96 -229q92 -94 229 -96q140 2 232 96q94 92 96 229v0z" />
<glyph unicode="&#x2026;" horiz-adv-x="2068" d="M453 219h-217v-219h217v219zM1143 219h-217v-219h217v219zM1833 219h-217v-219h217v219z" />
<glyph unicode="&#x2030;" horiz-adv-x="2658" d="M80 1087q2 -151 106 -249q101 -103 248 -105q152 2 250 107q98 100 100 247q-2 152 -102 250q-98 99 -248 101q-147 -2 -248 -101q-104 -98 -106 -250v0zM225 1087q0 86 62 146q57 57 147 59q88 -2 148 -59q57 -58 59 -146q-2 -88 -59 -145q-58 -63 -150 -63 q-86 0 -143 57q-64 55 -64 151v0zM1053 338q2 -152 106 -250q100 -102 248 -104q151 2 250 106q98 100 100 248q-2 151 -102 250q-99 98 -248 100q-148 -2 -248 -100q-104 -99 -106 -250v0zM1198 338q0 86 61 145q58 58 148 60q88 -2 147 -60q58 -57 60 -145 q-2 -88 -60 -146q-57 -63 -149 -63q-86 0 -144 57q-63 56 -63 152v0zM1382 1454h-112l-817 -1495h110zM1845 338q2 -152 107 -250q100 -102 247 -104q152 2 250 106q99 100 101 248q-2 151 -103 250q-98 98 -248 100q-147 -2 -247 -100q-105 -99 -107 -250v0zM1991 338 q0 86 61 145q57 58 147 60q88 -2 148 -60q57 -57 59 -145q-2 -88 -59 -146q-58 -63 -150 -63q-86 0 -143 57q-63 56 -63 152v0z" />
<glyph unicode="&#x2039;" horiz-adv-x="690" d="M508 924v0l-326 -256v-189l326 -256v0v182l-217 168l217 168v183z" />
<glyph unicode="&#x203a;" horiz-adv-x="690" d="M182 924v0v-183l217 -168l-217 -168v-182v0l326 256v189z" />
<glyph unicode="&#x2116;" horiz-adv-x="2298" d="M1143 287h-4l-744 1200h-237v-1487h194v1200h4l756 -1200h225v1487h-194v-1200zM2181 657q0 101 -29 168q-28 68 -75 105q-101 71 -224 69q-55 0 -112 -14q-60 -14 -107 -55q-47 -37 -76 -105q-32 -67 -32 -168q0 -100 32 -166q29 -67 76 -106t107 -53q57 -19 112 -19 q123 -2 224 72q47 39 75 106q29 66 29 166v0zM2042 657q2 -71 -33 -149q-18 -37 -55 -62q-39 -26 -101 -26q-57 0 -94 26q-39 25 -59 62q-19 37 -27 78t-8 71q-2 72 35 152q20 37 59 61q37 23 94 23q62 0 101 -23q37 -24 55 -61q20 -37 29 -76q4 -41 4 -76v0zM1546 203v-99 h614v99h-614z" />
<glyph unicode="&#x2122;" horiz-adv-x="2068" d="M1397 858l-244 627h-231v-852h149v692h4l268 -692h103l268 692h4v-692h150v852h-232l-239 -627v0zM772 1485h-676v-125h262v-727h152v727h262v125z" />
<glyph unicode="&#x2219;" horiz-adv-x="573" d="M287 653q-51 0 -88 -35q-41 -36 -41 -96q0 -51 41 -88q34 -41 88 -41q57 0 94 41q35 39 37 88q-2 58 -41 94q-39 35 -90 37v0z" />
<glyph unicode="&#x25fc;" horiz-adv-x="1085" d="M0 1085h1085v-1085h-1085v1085z" />
</font>
</defs>
</svg>
